Notice: Undefined variable: CURUSER in /home/cycling/domains/cyclingtorrents.nl/public_html/details.php on line 47

Notice: Undefined variable: CURUSER in /home/cycling/domains/cyclingtorrents.nl/public_html/details.php on line 47
Details for torrent "World Championships Track 2013 - Minsk - Day 4 [BBC]" :: CyclingTorrents.nl V.2.0.0

World Championships Track 2013 - Minsk - Day 4 [BBC]

This is a "free leech" torrent and downloading will not affect your ratio.
Description
Resolution: 832x486
Run Time: 1:44:00
Jonathan Edwards introduces action from cycling's World Track Championships.
PLUS Victoria Pendleton in studio! ;-)

Three gold medals are on offer on this penultimate day. There will be a new champion in the women's sprint, with the 2012 British winner Victoria Pendleton having since retired.
The women's points race and men's omnium will also be decided. Ed Clancy won Olympic bronze for Great Britain in 2012 and he will be eager to at least match that result after narrowly missing out on a World Championship medal.
The first three races of the six-stage omnium will also be contested in the women's event, in which Britain's new track star Laura Trott is the Olympic and defending world champion.

Format                           : MPEG-4
Format profile                   : Base Media
Codec ID                         : isom
File size                        : 1.09 GiB
Duration                         : 1h 44mn
Overall bit rate                 : 1 503 Kbps
Writing application              : Lavf53.21.1

Video
ID                               : 1
Format                           : AVC
Format/Info                      : Advanced Video Codec
Format profile                   : Main@L3.0
Format settings, CABAC           : Yes
Format settings, ReFrames        : 4 frames
Codec ID                         : avc1
Codec ID/Info                    : Advanced Video Coding
Duration                         : 1h 44mn
Bit rate mode                    : Constant
Bit rate                         : 1 404 Kbps
Width                            : 832 pixels
Height                           : 468 pixels
Display aspect ratio             : 16:9
Frame rate mode                  : Constant
Frame rate                       : 25.000 fps
Standard                         : PAL
Color space                      : YUV
Chroma subsampling               : 4:2:0
Bit depth                        : 8 bits
Scan type                        : Progressive
Bits/(Pixel*Frame)               : 0.144
Stream size                      : 1.02 GiB (93%)

Audio
ID                               : 2
Format                           : AAC
Format/Info                      : Advanced Audio Codec
Format profile                   : HE-AAC / LC
Codec ID                         : 40
Duration                         : 1h 44mn
Bit rate mode                    : Variable
Bit rate                         : 96.0 Kbps
Channel(s)                       : 2 channels
Channel positions                : Front: L R
Sampling rate                    : 48.0 KHz / 24.0 KHz
Compression mode                 : Lossy
Stream size                      : 70.5 MiB (6%)
LanguageEnglish
TypeTrack
FormatCompressed Video (avi,divx)
Recurring RaceWorld Championships Track
Last seederLast activity 4 minutes ago
Size1.09 GB (1,173,072,805 bytes)
AddedFeb 24 2013, 03:13 AM
Views2348
Hits399
Snatched305 time(s)
Peers5 seeder(s), 0 leecher(s) = 5 peer(s) total